<?xml version="1.0" standalone="no"?>
<!DOCTYPE svg PUBLIC "-//W3C//DTD SVG 1.1//EN" "http://www.w3.org/Graphics/SVG/1.1/DTD/svg11.dtd" >
<svg xmlns="http://www.w3.org/2000/svg">
<metadata>
This is a custom SVG webfont generated by Font Squirrel.
Copyright   : Font software Copyright 1993 1994 2001 Adobe Systems Incorporated Typeface designs Copyright 2005 International Typeface Corporation All rights reserved
Designer    : Herb Lubalin and Tom Carnase
Foundry URL : httpwwwitcfontscom
</metadata>
<defs>
<font id="ITCAvantGardeGothicProBold" horiz-adv-x="1265" >
<font-face units-per-em="2048" ascent="1516" descent="-532" />
<missing-glyph horiz-adv-x="632" />
<glyph unicode=" "  horiz-adv-x="632" />
<glyph unicode="&#x09;" horiz-adv-x="632" />
<glyph unicode="&#xa0;" horiz-adv-x="632" />
<glyph unicode="!" horiz-adv-x="681" d="M166 0v348h350v-348h-350zM166 500v1016h350v-1016h-350z" />
<glyph unicode="&#x22;" horiz-adv-x="948" d="M70 1516h356l-70 -609h-219zM522 1516h357l-70 -609h-219z" />
<glyph unicode="#" d="M63 449l31 227h205l20 149h-204l30 228h205l45 323h234l-45 -323h159l45 323h234l-45 -323h227l-30 -228h-230l-20 -149h227l-31 -227h-229l-49 -357h-232l49 357h-159l-49 -357h-234l49 357h-203zM532 676h160l21 149h-160z" />
<glyph unicode="$" horiz-adv-x="2019" d="M164 459h350q4 -61 34 -103.5t87 -42.5q49 0 83 36t34 85q0 57 -43 99t-106.5 66t-138.5 57.5t-138.5 73.5t-106.5 120t-43 190q0 158 87 264.5t241 149.5v207h276v-207q135 -31 211 -134t74 -245v-10h-317q-8 129 -113 129q-49 0 -80 -33t-31 -82q0 -31 15.5 -57.5 t34 -45t55.5 -37.5t57.5 -27.5t62.5 -24t52 -19.5q137 -53 219 -153.5t82 -239.5q0 -147 -89 -258t-233 -158v-215h-276v207q-166 35 -250 139q-90 111 -90 269z" />
<glyph unicode="%" horiz-adv-x="1757" d="M74 1176q0 154 107.5 262t261 108t261 -108.5t107.5 -261.5q0 -152 -108.5 -260.5t-260 -108.5t-260 108.5t-108.5 260.5zM301 1176q0 -57 42 -99.5t99.5 -42.5t99.5 42t42 101.5t-42 100.5t-100 41q-59 0 -100 -42t-41 -101zM442 0l627 1516h238l-629 -1516h-236z M944 340q0 154 108.5 262.5t262 108.5t261 -108.5t107.5 -262.5q0 -152 -108.5 -261.5t-259.5 -109.5q-154 0 -262.5 108.5t-108.5 262.5zM1171 340q0 -57 43 -100t100.5 -43t99.5 42t42 101t-41 101t-100.5 42t-101.5 -42t-42 -101z" />
<glyph unicode="&#x26;" horiz-adv-x="1552" d="M100 410q0 137 73 230t208 185q-143 147 -143 328q0 170 123.5 280.5t295.5 110.5q166 0 282 -105.5t116 -267.5q0 -203 -209 -348l178 -180l111 248h358l-117 -281q-49 -117 -114 -200l206 -213l-231 -228l-178 185q-213 -184 -453 -185q-201 0 -353.5 123t-152.5 318z M473 444q0 -70 51 -109.5t123 -39.5q115 0 184 82l-241 244q-37 -29 -57.5 -49.5t-40 -55.5t-19.5 -72zM567 1169q0 -74 86 -163q94 94 95 168q0 41 -24 68.5t-65 27.5t-66.5 -29t-25.5 -72z" />
<glyph unicode="'" horiz-adv-x="495" d="M70 1516h356l-70 -609h-219z" />
<glyph unicode="(" horiz-adv-x="968" d="M133 502q0 360 203 636.5t545 405.5v-356q-170 -94 -269.5 -290t-99.5 -400.5t99.5 -397t269.5 -286.5v-355q-342 129 -545 407t-203 636z" />
<glyph unicode=")" horiz-adv-x="968" d="M88 -186q170 94 269.5 289.5t99.5 400.5t-99.5 397.5t-269.5 286.5v356q342 -129 545 -406.5t203 -637.5q0 -358 -203 -636t-545 -405v355z" />
<glyph unicode="*" horiz-adv-x="1372" d="M236 1104l73 223l262 -98l-6 287h244l-14 -287l264 98l78 -223l-269 -84l170 -225l-190 -144l-168 236l-162 -236l-190 144l176 225z" />
<glyph unicode="+" horiz-adv-x="1228" d="M98 354v328h353v354h327v-354h352v-328h-352v-354h-327v354h-353z" />
<glyph unicode="," horiz-adv-x="643" d="M145 0v348h355v-430q0 -102 -55.5 -175t-153.5 -73h-146v183h28h32q8 0 28.5 2t28.5 7t20.5 13t17.5 22.5t5 32.5v70h-160z" />
<glyph unicode="-" horiz-adv-x="575" d="M0 424v334h575v-334h-575z" />
<glyph unicode="." horiz-adv-x="643" d="M145 0v348h355v-348h-355z" />
<glyph unicode="/" horiz-adv-x="1214" d="M147 -205l543 1721h377l-541 -1721h-379z" />
<glyph unicode="0" d="M68 547v422q0 186 87 324.5t255 205.5q117 45 229 45q117 0 231 -49q162 -72 245 -208t83 -318v-422q0 -176 -77 -312.5t-232 -207.5q-117 -55 -250 -56q-119 0 -231 47q-166 70 -253 207.5t-87 321.5zM455 537q0 -98 43 -162t135 -64q178 0 178 226v442q0 225 -178 225 q-92 0 -135 -64.5t-43 -160.5v-442z" />
<glyph unicode="1" d="M213 1190v326h635v-1516h-387v1190h-248z" />
<glyph unicode="2" d="M90 965q6 219 90 348q74 115 199 173t268 58q156 0 285 -66.5t192 -199.5q39 -88 39 -174q0 -117 -43 -227.5t-128 -215t-153.5 -172t-179.5 -163.5h515v-326h-1070v301q156 100 262.5 183t200.5 186q209 227 209 387q0 66 -39 106.5t-104 40.5q-162 0 -174 -239h-369z " />
<glyph unicode="3" d="M68 453h391q31 -141 176 -142q78 0 121 46t43 124q0 33 -10.5 58.5t-24.5 42t-41 28t-48.5 16.5t-56 8t-55 3t-56.5 -1t-48 -1v285q49 0 70.5 1t65.5 8t63.5 21.5t38 45t18.5 75.5q0 55 -26.5 94t-80.5 39q-115 0 -119 -131h-380q2 219 149.5 345t368.5 126 q190 0 332.5 -113.5t142.5 -300.5q0 -209 -201 -317q285 -96 285 -367q0 -209 -173 -342t-388 -133q-139 0 -271.5 54.5t-201.5 158.5q-66 101 -84 269z" />
<glyph unicode="4" d="M31 266v283l678 967h360v-947h168v-303h-168v-266h-371v266h-667zM420 569h303v475h-4z" />
<glyph unicode="5" d="M53 406h389q68 -94 179 -95q84 0 144 59.5t60 141.5q0 88 -59 143.5t-148 55.5q-143 0 -198 -131l-314 77l132 859h837v-326h-540l-33 -207q82 45 205 45q160 0 281.5 -79t182.5 -226q41 -98 41 -203q0 -111 -45 -213q-72 -164 -213 -251t-323 -87q-215 0 -377 116 t-201 321z" />
<glyph unicode="6" d="M43 557q0 201 139 406l377 553h449l-334 -457l4 -4q23 8 74 8q209 0 343 -150.5t134 -363.5q0 -250 -169 -414t-419 -164q-260 0 -429 163t-169 423zM424 522q0 -88 58.5 -149.5t146.5 -61.5t150.5 58.5t62.5 146.5q0 90 -61.5 148.5t-151.5 58.5q-86 0 -145.5 -57.5 t-59.5 -143.5z" />
<glyph unicode="7" d="M133 1190v326h987v-297l-532 -1219h-426l559 1190h-588z" />
<glyph unicode="8" d="M80 451q0 129 61.5 231t175.5 152q-147 113 -147 284q0 190 135 308t328 118q190 0 326.5 -116.5t136.5 -305.5q0 -172 -148 -288q117 -49 177.5 -150.5t60.5 -232.5q0 -211 -167 -345.5t-384 -134.5t-386 134.5t-169 345.5zM467 485.5q0 -73.5 49 -124t123 -50.5 q68 0 114 52.5t46 119.5q0 72 -47 123t-119 51q-74 0 -120 -49t-46 -122.5zM494 1092q0 -59 38.5 -99.5t98 -40.5t100.5 42t41 102q0 55 -41 95t-96 40q-59 0 -100 -41t-41 -98z" />
<glyph unicode="9" d="M41 969q0 250 169 412.5t419 162.5q303 0 477 -198q127 -143 127 -371q0 -207 -146 -420l-376 -555h-449l334 459l-4 4q-23 -8 -74 -8q-102 0 -201 49q-133 66 -204.5 189.5t-71.5 275.5zM428 1001q0 -88 59.5 -147t149.5 -59q88 0 148.5 56t60.5 144q0 90 -60.5 149.5 t-148.5 59.5q-86 0 -147.5 -58.5t-61.5 -144.5z" />
<glyph unicode=":" horiz-adv-x="643" d="M145 0v348h355v-348h-355zM145 788v349h355v-349h-355z" />
<glyph unicode=";" horiz-adv-x="643" d="M145 0v348h355v-430q0 -102 -55.5 -175t-153.5 -73h-146v183h28h32q8 0 28.5 2t28.5 7t20.5 13t17.5 22.5t5 32.5v70h-160zM145 788v349h355v-349h-355z" />
<glyph unicode="&#x3c;" horiz-adv-x="1228" d="M94 360v316l1041 438v-358l-697 -236v-4l697 -235v-359z" />
<glyph unicode="=" horiz-adv-x="1228" d="M98 84v328h1032v-328h-1032zM98 625v327h1032v-327h-1032z" />
<glyph unicode="&#x3e;" horiz-adv-x="1228" d="M94 -78v359l697 235v4l-697 236v358l1041 -438v-316z" />
<glyph unicode="?" horiz-adv-x="1212" d="M98 1034q0 225 155 367.5t384 142.5q141 0 260 -62.5t182 -183.5q49 -92 49 -188q0 -92 -37.5 -171t-94 -135t-112 -105.5t-98.5 -104.5t-47 -113h-356q2 78 38 149.5t88 124t103.5 101.5t87 103.5t35.5 107.5q0 127 -119 127q-59 0 -90.5 -30.5t-40 -68.5t-10.5 -98 h-375q-2 12 -2 37zM383 0v348h356v-348h-356z" />
<glyph unicode="@" horiz-adv-x="1531" d="M-6 748q0 338 232.5 569t570.5 231q303 0 514 -187t211 -484q0 -115 -37 -222q-45 -133 -142.5 -231t-222.5 -98q-150 0 -200 147q-88 -147 -244 -147q-141 0 -228.5 108.5t-87.5 253.5q0 174 115 316.5t285 142.5q68 0 124 -31t79 -90h4l16 96h213l-76 -446 q-14 -76 -14 -105q0 -53 55 -53q53 0 93 69.5t57 135.5q18 74 18 151q0 219 -151.5 353.5t-372.5 134.5q-254 0 -428 -181.5t-174 -437.5q0 -115 41 -225q131 -365 559 -364q229 0 432 75l43 -188q-207 -74 -475 -74q-264 0 -462 122t-290 360q-57 147 -57 299zM580 696 q0 -76 39.5 -127t113.5 -51q94 0 141.5 85t47.5 185q0 70 -35 118t-101 48q-90 0 -148 -82t-58 -176z" />
<glyph unicode="A" horiz-adv-x="1552" d="M18 0l609 1516h305l602 -1516h-420l-74 219h-526l-80 -219h-416zM621 526h317l-156 518h-2h-4z" />
<glyph unicode="B" horiz-adv-x="1325" d="M137 0v1516h467q119 0 183.5 -5.5t152.5 -40t150 -102.5q90 -98 90 -250q0 -96 -46.5 -177t-129.5 -128q250 -86 249 -352q0 -211 -139 -330q-74 -63 -161 -93t-147.5 -34t-187.5 -4h-481zM508 340h192q182 0 183 145q0 131 -181 131h-194v-276zM508 940h147 q154 0 154 121q0 115 -152 115h-149v-236z" />
<glyph unicode="C" horiz-adv-x="1703" d="M76 760q0 332 231.5 558t562.5 226q207 0 381 -92t287 -264q82 -123 102 -248h-405q-45 119 -143.5 191.5t-223.5 72.5q-178 0 -291.5 -130t-113.5 -312t113.5 -316.5t293.5 -134.5q123 0 217.5 70t147.5 186h405q-66 -268 -277.5 -432t-488.5 -164q-332 0 -565 228.5 t-233 560.5z" />
<glyph unicode="D" horiz-adv-x="1519" d="M117 0v1516h501q231 0 390 -58.5t280 -224.5q139 -195 139 -471q0 -371 -202.5 -566.5t-577.5 -195.5h-530zM504 340h166q190 0 280 110.5t90 305.5q0 190 -91 305t-277 115h-168v-836z" />
<glyph unicode="E" horiz-adv-x="1081" d="M137 0v1516h842v-340h-471v-236h457v-340h-457v-260h471v-340h-842z" />
<glyph unicode="F" horiz-adv-x="1036" d="M137 0v1516h828v-340h-457v-258h440v-340h-440v-578h-371z" />
<glyph unicode="G" horiz-adv-x="1748" d="M72 764q0 336 236.5 558t574.5 222q252 0 471 -149.5t286 -386.5h-434q-111 197 -334 196q-182 0 -297.5 -128t-115.5 -312q0 -193 113.5 -324t301.5 -131q131 0 229.5 61.5t133.5 182.5h-453v309h899q2 -27 3 -80q0 -348 -230.5 -580.5t-578.5 -232.5 q-336 0 -570.5 229.5t-234.5 565.5z" />
<glyph unicode="H" horiz-adv-x="1544" d="M137 0v1516h387v-570h496v570h387v-1516h-387v606h-496v-606h-387z" />
<glyph unicode="I" horiz-adv-x="661" d="M137 0v1516h387v-1516h-387z" />
<glyph unicode="J" horiz-adv-x="1183" d="M12 487h412q10 -176 117 -176q39 0 64.5 16.5t35.5 49.5t13 60.5t3 66.5v1012h387v-916q0 -98 -3 -154.5t-25.5 -138.5t-65.5 -137q-76 -94 -190.5 -146.5t-237.5 -52.5q-109 0 -205 37q-305 110 -305 479z" />
<glyph unicode="K" horiz-adv-x="1447" d="M178 0v1516h387v-682h4l428 682h406l-502 -756l535 -760h-453l-414 655h-4v-655h-387z" />
<glyph unicode="L" horiz-adv-x="997" d="M147 0v1516h388v-1176h448v-340h-836z" />
<glyph unicode="M" horiz-adv-x="1873" d="M137 0v1516h498l301 -998h4l297 998h500v-1516h-357l13 1135l-4 4l-324 -1139h-256l-324 1139l-4 -4l13 -1135h-357z" />
<glyph unicode="N" horiz-adv-x="1554" d="M137 0v1516h334l586 -953l4 4l-17 949h371v-1516h-336l-577 922l-4 -2l10 -920h-371z" />
<glyph unicode="O" horiz-adv-x="1742" d="M72 739q0 172 59 324q31 82 98 170q238 311 641 311q334 0 567.5 -227t233.5 -559q0 -334 -233.5 -560.5t-569.5 -226.5q-326 0 -561 222t-235 546zM459 762q0 -186 116.5 -318.5t301.5 -132.5q178 0 292.5 132t114.5 313q0 182 -115.5 315t-296.5 133 q-182 0 -297.5 -130t-115.5 -312z" />
<glyph unicode="P" horiz-adv-x="1302" d="M137 0v1516h496q98 0 165.5 -5.5t155.5 -31t146 -74.5q178 -152 178 -401q0 -111 -42 -220.5t-118 -177.5q-90 -80 -192.5 -105.5t-249.5 -25.5h-168v-475h-371zM508 815h158q113 0 177 39t64 143q0 106 -69.5 142.5t-186.5 36.5h-143v-361z" />
<glyph unicode="Q" horiz-adv-x="1773" d="M72 750q0 334 231.5 564t564.5 230q215 0 400.5 -100.5t297 -279.5t111.5 -394q0 -252 -125 -438q60 -55 150 -55q24 0 49 4v-308q-66 -4 -96 -4q-244 0 -357 119q-190 -119 -426 -119q-330 0 -565 226.5t-235 554.5zM461 821q123 51 215 51q160 0 304 -89t259 -230 q51 88 51 223q0 184 -118.5 306t-301.5 122q-166 0 -273 -107.5t-136 -275.5zM500 565q47 -111 148.5 -183.5t219.5 -72.5q104 0 176 39q-98 119 -190 180.5t-219 61.5q-65 0 -135 -25z" />
<glyph unicode="R" horiz-adv-x="1337" d="M137 0v1516h479q102 0 167 -4.5t152 -30t148 -74.5q186 -150 187 -414q0 -180 -101.5 -314t-275.5 -163l412 -516h-443l-350 489h-4v-489h-371zM508 754h137q117 0 185.5 53t68.5 164q0 104 -70.5 154.5t-179.5 50.5h-141v-422z" />
<glyph unicode="S" horiz-adv-x="1173" d="M51 453v49h385q0 -84 40 -145.5t118 -61.5q61 0 104 42t43 103q0 35 -12 61.5t-41 47t-47 30t-61 27.5q-45 20 -136 58q-174 72 -272 171t-98 263q0 201 161.5 323.5t368.5 122.5q117 0 228.5 -44t181.5 -128q55 -68 75.5 -135.5t24.5 -163.5h-383q-10 72 -41 110t-98 38 q-53 0 -93 -34t-40 -85q0 -41 14 -64q10 -16 37 -36.5t67.5 -41t70.5 -35t74 -34t50 -21.5q174 -80 264 -175t90 -259q0 -229 -146 -347t-382 -118q-240 0 -393.5 124.5t-153.5 357.5z" />
<glyph unicode="T" horiz-adv-x="1021" d="M20 1176v340h984v-340h-297v-1176h-388v1176h-299z" />
<glyph unicode="U" horiz-adv-x="1429" d="M133 600v916h387v-916q0 -129 40 -209t157 -80q53 0 90 17.5t56.5 42t30.5 66.5t13 77t2 86v916h387v-916q0 -156 -30.5 -265.5t-120.5 -199.5q-162 -164 -424 -164q-283 0 -436 162q-96 100 -124 201.5t-28 265.5z" />
<glyph unicode="V" horiz-adv-x="1478" d="M33 1516h397l305 -1063h4l308 1063h399l-508 -1516h-399z" />
<glyph unicode="W" horiz-adv-x="2009" d="M33 1516h393l203 -986h4l223 986h297l219 -990h4l207 990h391l-401 -1516h-340l-227 981h-5l-227 -981h-350z" />
<glyph unicode="X" horiz-adv-x="1554" d="M23 0l530 807l-469 709h438l260 -433l252 433h436l-462 -717l524 -799h-438l-328 537l-311 -537h-432z" />
<glyph unicode="Y" horiz-adv-x="1325" d="M18 1516h420l226 -609l227 609h416l-449 -965v-551h-387v551z" />
<glyph unicode="Z" horiz-adv-x="1021" d="M33 0v254l522 922h-522v340h956v-314l-483 -862h483v-340h-956z" />
<glyph unicode="[" horiz-adv-x="968" d="M213 104v795q0 174 49 301t178 221q152 111 381 123v-356q-127 -6 -175 -75t-48 -200v-823q0 -131 48 -199.5t175 -74.5v-357q-225 12 -381 123q-127 90 -177 219t-50 303z" />
<glyph unicode="\" horiz-adv-x="1214" d="M147 1516h377l543 -1721h-379z" />
<glyph unicode="]" horiz-adv-x="968" d="M147 -184q127 6 175.5 74.5t48.5 199.5v823q0 131 -48.5 200t-175.5 75v356q225 -12 381 -123q127 -90 177.5 -219t50.5 -303v-795q0 -174 -49.5 -301t-178.5 -221q-152 -111 -381 -123v357z" />
<glyph unicode="^" horiz-adv-x="1228" d="M88 768l356 748h340l357 -748h-369l-156 457h-4l-157 -457h-367z" />
<glyph unicode="_" horiz-adv-x="1024" d="M0 -154h1024v-102h-1024v102z" />
<glyph unicode="`" horiz-adv-x="1136" d="M227 1499l105 240l495 -262l-94 -199z" />
<glyph unicode="a" horiz-adv-x="1441" d="M70 569q0 254 159.5 430.5t411.5 176.5q102 0 193.5 -40t138.5 -120h4v121h340v-1137h-340v123h-4q-43 -82 -136.5 -122t-195.5 -40q-256 0 -413.5 174t-157.5 434zM410 565q0 -119 81.5 -202.5t200.5 -83.5q123 0 204 83.5t81 206.5q0 125 -81 207t-206 82 q-123 0 -201.5 -85t-78.5 -208z" />
<glyph unicode="b" horiz-adv-x="1419" d="M123 0v1516h340v-469q121 129 330 129q119 0 239 -56q160 -74 240 -217t80 -328q0 -264 -157 -439t-417 -175q-96 0 -190 41t-135 119h-4v-121h-326zM451 571q0 -123 76.5 -207.5t199.5 -84.5t204 83.5t81 206.5q0 119 -80 204t-199 85q-121 0 -201.5 -83t-80.5 -204z " />
<glyph unicode="c" horiz-adv-x="1335" d="M68 571q0 252 174 428.5t426 176.5q221 0 389 -131.5t213 -346.5h-344q-74 160 -254 160q-119 0 -190.5 -84t-71.5 -205q0 -123 74.5 -205.5t195.5 -82.5q166 0 246 151h346q-49 -209 -215 -339t-381 -130q-254 0 -431 176t-177 432z" />
<glyph unicode="d" horiz-adv-x="1429" d="M70 571q0 254 156.5 429.5t406.5 175.5q201 0 334 -136v476h340v-1516h-324v123h-4q-94 -160 -340 -160q-256 0 -412.5 175t-156.5 433zM410 573q0 -127 78.5 -209.5t205.5 -82.5t209 82.5t82 209.5q0 123 -82 204t-205 81t-205.5 -81t-82.5 -204z" />
<glyph unicode="e" horiz-adv-x="1323" d="M61 565q0 250 174.5 430.5t421.5 180.5q258 0 429 -180.5t171 -440.5q0 -49 -8 -90h-852q14 -98 89 -156.5t178 -58.5q123 0 206 106h349q-76 -176 -222.5 -284.5t-332.5 -108.5q-250 0 -426.5 176t-176.5 426zM401 694h517q-20 90 -92 142.5t-166.5 52.5t-166.5 -52.5 t-92 -142.5z" />
<glyph unicode="f" horiz-adv-x="643" d="M8 879v258h127v59q0 348 434 348h49v-256q-92 0 -117.5 -27.5t-25.5 -123.5h143v-258h-143v-879h-340v879h-127z" />
<glyph unicode="g" horiz-adv-x="1419" d="M70 561q0 256 159.5 434.5t413.5 178.5q223 0 313 -144h5v107h339v-1000q0 -258 -67 -375q-78 -133 -241 -200.5t-335 -67.5q-344 0 -497 223q-57 84 -70 177h393q51 -113 199 -113q135 0 205.5 84t70.5 225v35h-4q-43 -80 -129 -121t-182 -41q-252 0 -412.5 173 t-160.5 425zM410 573q0 -121 75.5 -206.5t196.5 -85.5q123 0 201 79.5t78 202.5q0 125 -77 209t-200 84q-117 0 -195.5 -83t-78.5 -200z" />
<glyph unicode="h" horiz-adv-x="1294" d="M123 0v1516h340v-484h4q80 143 293 144q203 0 309 -125q51 -59 75.5 -135t28 -126.5t3.5 -154.5v-635h-340v618q0 238 -183 238q-190 0 -190 -225v-631h-340z" />
<glyph unicode="i" horiz-adv-x="585" d="M123 0v1137h340v-1137h-340zM123 1257v259h340v-259h-340z" />
<glyph unicode="j" horiz-adv-x="657" d="M12 -160h45q78 0 99.5 43t21.5 129v1125h340v-1112q0 -242 -90 -342.5t-332 -100.5h-84v258zM178 1257v259h340v-259h-340z" />
<glyph unicode="k" horiz-adv-x="1210" d="M135 0v1516h340v-791h4l316 412h403l-428 -500l416 -637h-385l-322 547h-4v-547h-340z" />
<glyph unicode="l" horiz-adv-x="585" d="M123 0v1516h340v-1516h-340z" />
<glyph unicode="m" horiz-adv-x="1984" d="M123 0v1137h317v-121h4q90 160 314 160q219 0 327 -203q129 203 361 203q186 0 299 -115q31 -33 53.5 -63.5t35.5 -72.5t20.5 -64.5t10.5 -80t3 -72.5v-87v-621h-340v604q0 117 -34 184.5t-140 67.5q-188 0 -189 -235v-621h-340v618q0 238 -170 238q-193 0 -192 -252 v-604h-340z" />
<glyph unicode="n" horiz-adv-x="1294" d="M123 0v1137h317v-121h4q98 160 310 160q74 0 155.5 -27t134.5 -72q131 -109 132 -366v-711h-340v621q0 113 -37 174t-142 61q-111 0 -152.5 -62.5t-41.5 -175.5v-618h-340z" />
<glyph unicode="o" horiz-adv-x="1363" d="M70 569q0 260 175 432.5t437 172.5t437 -172.5t175 -432.5t-175 -432t-437 -172t-437 172t-175 432zM410 569.5q0 -116.5 77.5 -201.5t194.5 -85t194.5 85t77.5 201.5t-77.5 201.5t-194.5 85t-194.5 -85t-77.5 -201.5z" />
<glyph unicode="p" horiz-adv-x="1427" d="M123 -379v1516h319v-125h2h5q131 164 354 164q254 0 404.5 -180.5t150.5 -438.5q0 -246 -155.5 -421t-397.5 -175q-213 0 -342 141v-481h-340zM449 567q0 -121 81.5 -204.5t202.5 -83.5t203 83.5t82 204.5q0 123 -81 207t-204 84t-203.5 -84t-80.5 -207z" />
<glyph unicode="q" horiz-adv-x="1429" d="M70 547q0 264 155.5 446.5t415.5 182.5q104 0 196.5 -41t139.5 -123h4v125h326v-1516h-340v496h-4q-111 -154 -345 -154q-242 0 -395 170t-153 414zM410 561q0 -117 84 -198.5t202.5 -81.5t200.5 84t82 202q0 123 -82 207t-205 84q-125 0 -203.5 -86t-78.5 -211z" />
<glyph unicode="r" horiz-adv-x="743" d="M121 0v1137h319v-121h4q82 160 285 160v-342q-131 -4 -199.5 -46.5t-68.5 -162.5v-625h-340z" />
<glyph unicode="s" horiz-adv-x="1021" d="M49 338h338q8 -51 42 -78t87 -27q43 0 81 24t38 65q0 16 -5 30.5t-15.5 26.5t-19.5 20.5t-27.5 17.5t-28 13t-31 12.5t-27.5 10.5q-98 33 -147 51q-270 98 -271 297q0 170 132.5 272.5t308.5 102.5q178 0 299 -92.5t137 -266.5h-334q-2 86 -106 86q-37 0 -67 -20.5 t-30 -55.5q0 -41 42 -69.5t105.5 -44t138.5 -42t138.5 -60t105.5 -101.5t42 -162q0 -182 -137.5 -284.5t-325.5 -102.5q-186 0 -315.5 98.5t-147.5 278.5z" />
<glyph unicode="t" horiz-adv-x="718" d="M23 879v258h167v379h340v-379h164v-258h-164v-879h-340v879h-167z" />
<glyph unicode="u" horiz-adv-x="1298" d="M119 457v680h340v-629q0 -111 38 -169t144 -58q195 0 195 231v625h340v-1137h-322v121h-4q-76 -158 -295 -158q-217 0 -334 143q-63 80 -82.5 156t-19.5 195z" />
<glyph unicode="v" horiz-adv-x="1212" d="M35 1137h352l217 -709h4l217 709h353l-410 -1137h-326z" />
<glyph unicode="w" horiz-adv-x="1740" d="M14 1137h353l170 -707h4l186 707h287l188 -707h4l170 707h350l-348 -1137h-315l-191 735h-4l-190 -735h-316z" />
<glyph unicode="x" horiz-adv-x="1290" d="M2 0l432 608l-383 529h408l184 -299l182 299h404l-383 -529l440 -608h-416l-227 352l-231 -352h-410z" />
<glyph unicode="y" horiz-adv-x="1175" d="M2 1137h363l227 -660h4l217 660h361l-570 -1516h-360l180 436z" />
<glyph unicode="z" horiz-adv-x="909" d="M31 0v233l479 646h-479v258h846v-258l-445 -621h445v-258h-846z" />
<glyph unicode="{" horiz-adv-x="1134" d="M215 301v352q78 0 138.5 33t60.5 105v442q0 133 89 208t224 75h262v-259q-14 0 -50 1.5t-50.5 0t-41 -4.5t-37.5 -11t-26.5 -22.5t-20.5 -39t-5 -57.5v-428q0 -109 -56.5 -158t-164.5 -57v-8q92 -4 156.5 -52t64.5 -136v-435q0 -33 5 -57t20.5 -38.5t26.5 -22.5 t37.5 -11.5t41 -4.5t50.5 0t50 1v-258h-262q-135 0 -224 75t-89 208v434q0 68 -61.5 96.5t-137.5 28.5z" />
<glyph unicode="|" horiz-adv-x="1136" d="M381 -205v1721h375v-1721h-375z" />
<glyph unicode="}" horiz-adv-x="1134" d="M145 -283q14 0 50 -1t50.5 0t41 4.5t38 11.5t27 22.5t20.5 39t5 56.5v435q0 88 64.5 136t156.5 52v8q-109 8 -165 57.5t-56 157.5v428q0 33 -5 57.5t-20.5 39t-27 22.5t-38 11t-41 4.5t-50 0t-50.5 -1.5v259h263q135 0 224 -75t89 -208v-442q0 -72 60.5 -105t138.5 -33 v-352q-76 0 -137.5 -28.5t-61.5 -96.5v-434q0 -133 -89 -208t-224 -75h-263v258z" />
<glyph unicode="~" horiz-adv-x="1228" d="M137 586q100 182 260 182q82 0 234.5 -69.5t202.5 -69.5q39 0 77.5 27.5t55 48t51.5 67.5l74 -323q-45 -59 -72 -90t-79 -61t-110 -30q-78 0 -213 70t-231 70q-100 0 -176 -142z" />
<glyph unicode="&#xa1;" horiz-adv-x="681" d="M166 -379v1016h350v-1016h-350zM166 788v349h350v-349h-350z" />
<glyph unicode="&#xa2;" d="M127 764q0 174 100.5 308t266.5 188v215h268v-207q143 -39 252.5 -153t124.5 -255h-353q-45 82 -145 82q-72 0 -124 -51t-52 -123q0 -74 51 -123t125 -49q86 0 137 70h361q-27 -143 -126.5 -249t-238.5 -138v-216h-280v216q-166 57 -266.5 186t-100.5 299z" />
<glyph unicode="&#xa3;" d="M29 582v272h98q-57 84 -57 193q0 102 49 204q70 141 203 218t292 77q141 0 264 -62.5t195 -178.5q61 -98 78 -265h-356q-16 166 -174 166q-68 0 -116 -51t-48 -119q0 -98 69 -182h320v-272h-158q68 -80 68 -142q0 -66 -80 -137h84q168 0 168 139q0 31 -15 74h330 q23 -74 23 -131q0 -76 -37 -149q-111 -236 -412 -236h-727v303h100q39 0 65 3t57.5 12.5t48 34t16.5 61.5q0 18 -4 35.5t-16.5 39t-17.5 29.5t-25.5 35t-22.5 29h-262z" />
<glyph unicode="&#xa4;" horiz-adv-x="1257" d="M43 362q29 25 79 73t66 63q-63 113 -63 227q0 119 63 227q-94 90 -145 138q106 111 162 163q94 -94 143 -141q106 61 234 62q131 0 231 -62q25 23 73 70t72 71q53 -53 160 -163q-51 -47 -145 -138q66 -109 65 -227q0 -113 -65 -227q16 -14 66.5 -62.5t78.5 -73.5 q-106 -111 -160 -163q-25 23 -72.5 69.5t-72.5 71.5q-100 -61 -231 -61t-234 61q-49 -47 -143 -141q-56 52 -162 163zM354 727q0 -92 66.5 -157.5t161 -65.5t161 65.5t66.5 157.5t-69.5 156.5t-157.5 64.5q-94 0 -161 -64.5t-67 -156.5z" />
<glyph unicode="&#xa5;" d="M2 1516h410l223 -486l227 486h404l-240 -445h199v-283h-348l-54 -100v-61h402v-285h-404v-342h-381v342h-401v285h401v55l-53 106h-344v283h203z" />
<glyph unicode="&#xa6;" horiz-adv-x="1136" d="M381 -205v688h375v-688h-375zM381 827v689h375v-689h-375z" />
<glyph unicode="&#xa7;" horiz-adv-x="1372" d="M82 582q0 186 194 329q-63 98 -63 228q0 195 143.5 300t345.5 105q199 0 342.5 -114.5t151.5 -307.5h-334q-35 119 -178 119t-143 -108q0 -68 121 -121l372 -168q127 -57 191.5 -134t64.5 -206q0 -100 -43 -170t-133 -154q104 -143 105 -289q0 -207 -149.5 -326.5 t-362.5 -119.5q-96 0 -195 29q-170 49 -267.5 164.5t-111.5 289.5h336q27 -174 231 -174q70 0 127.5 34t57.5 99q0 14 -3 27.5t-12.5 26t-16.5 21.5t-22.5 19.5t-23.5 16.5t-27.5 16.5t-25.5 13.5t-26.5 12t-22.5 11l-351 162q-137 63 -204.5 145.5t-67.5 223.5zM391 639 q0 -49 27.5 -76.5t81.5 -52.5l413 -191q76 49 76 127q0 74 -139 136l-379 170q-80 -39 -80 -113z" />
<glyph unicode="&#xa8;" horiz-adv-x="1136" d="M166 1298v310h326v-310h-326zM643 1298v310h326v-310h-326z" />
<glyph unicode="&#xa9;" horiz-adv-x="1638" d="M37 758q0 328 230.5 557t557.5 229q324 0 551.5 -232.5t227.5 -553.5q0 -324 -229.5 -555.5t-553 -231.5t-554 231.5t-230.5 555.5zM207 758q0 -258 179 -443.5t435 -185.5q258 0 435.5 185.5t177.5 443.5t-177.5 443t-433.5 185q-260 0 -438 -184t-178 -444zM393 764 q0 197 120 327t316 130q150 0 264.5 -90.5t125.5 -237.5h-215q-39 139 -173 139q-111 0 -165 -77.5t-54 -192.5t54.5 -190.5t164.5 -75.5q74 0 119 50t60 128h217q-14 -170 -123 -268.5t-281 -98.5q-199 0 -314.5 128t-115.5 329z" />
<glyph unicode="&#xaa;" horiz-adv-x="825" d="M76 1231q0 131 80 222t211 91q104 0 147 -80h2v60h203v-586h-203v59h-4q-39 -80 -150 -79q-127 0 -206.5 92t-79.5 221zM279 1231q0 -51 33.5 -86t84.5 -35q53 0 87 35t34 86t-33.5 86t-87.5 35q-51 0 -84.5 -35t-33.5 -86z" />
<glyph unicode="&#xab;" horiz-adv-x="864" d="M96 471v234l264 266v-287l-104 -92l104 -96v-285zM504 471v234l264 266v-287l-104 -92l104 -96v-285z" />
<glyph unicode="&#xac;" horiz-adv-x="1228" d="M68 584v327h1073v-690h-328v363h-745z" />
<glyph unicode="&#xad;" horiz-adv-x="575" d="M0 424v334h575v-334h-575z" />
<glyph unicode="&#xae;" horiz-adv-x="1638" d="M37 758q0 326 231.5 556t556.5 230q322 0 550.5 -232.5t228.5 -553.5q0 -324 -229.5 -555.5t-553 -231.5t-554 231.5t-230.5 555.5zM207 758q0 -258 179 -443.5t435 -185.5q258 0 435.5 185.5t177.5 443.5t-177.5 443t-433.5 185q-260 0 -438 -184t-178 -444zM485 330 v872h369q133 0 226.5 -59.5t93.5 -186.5q0 -147 -142 -211q80 -33 104.5 -101.5t26.5 -166.5t21 -147h-211q-8 16 -13.5 55t-9.5 90t-6 64q-8 70 -45 98.5t-111 28.5h-86v-336h-217zM702 807h113q141 0 141 133q0 113 -137 113h-117v-246z" />
<glyph unicode="&#xaf;" horiz-adv-x="1136" d="M201 1327v258h735v-258h-735z" />
<glyph unicode="&#xb0;" horiz-adv-x="819" d="M117 1165q0 123 85 208t207.5 85t207.5 -85t85 -208t-85 -208t-207.5 -85t-207.5 85t-85 208zM289 1165q0 -49 35.5 -87t85 -38t85 38t35.5 87t-35.5 87t-85 38t-85 -38t-35.5 -87z" />
<glyph unicode="&#xb1;" horiz-adv-x="1228" d="M98 160h1032v-328h-1032v328zM98 532v328h353v279h327v-279h352v-328h-352v-266h-327v266h-353z" />
<glyph unicode="&#xb2;" horiz-adv-x="833" d="M61 1434q4 137 60 217q100 141 307 141q131 0 234.5 -70.5t103.5 -197.5q0 -135 -123 -273q-70 -78 -186 -166v-4h313v-217h-698v199l39 24q37 25 47 31t47 31t52 37t47 36.5t50.5 43t40 42t37.5 46.5q49 70 49 135q0 84 -71 84q-92 0 -97 -139h-252z" />
<glyph unicode="&#xb3;" horiz-adv-x="833" d="M45 1145h264q20 -78 103 -78q98 0 98 88q0 80 -137 80q-16 0 -42 -1t-34 -1v184h37q135 0 135 86q0 68 -66 68q-70 0 -73 -72h-258q2 141 99 217t241 76q121 0 216 -67.5t95 -184.5q0 -125 -117 -188q74 -25 122 -83.5t48 -133.5q0 -131 -114.5 -210t-251.5 -79 q-88 0 -175.5 31.5t-132.5 95.5q-47 66 -57 172z" />
<glyph unicode="&#xb4;" horiz-adv-x="1136" d="M309 1458l492 264l108 -241l-503 -224z" />
<glyph unicode="&#xb5;" horiz-adv-x="1298" d="M106 -389v1526h340v-562q0 -123 45.5 -208.5t156 -85.5t156.5 86t46 208v562h340v-1137h-324v141h-2h-4q-23 -70 -80 -115.5t-129 -45.5q-63 0 -117.5 28.5t-82.5 81.5h-5v-479h-340z" />
<glyph unicode="&#xb6;" horiz-adv-x="1435" d="M-14 1114q0 401 520 402h737v-242h-100v-1485h-262v1485h-199v-1485h-262v938q-193 0 -313.5 98.5t-120.5 288.5z" />
<glyph unicode="&#xb7;" horiz-adv-x="643" d="M145 344v348h355v-348h-355z" />
<glyph unicode="&#xb8;" horiz-adv-x="1136" d="M342 -309h156q20 -57 67 -58q35 0 54.5 21.5t19.5 56.5q0 31 -19.5 50.5t-50 19.5t-55.5 -31l-133 72l86 178h170l-59 -109q20 6 43 7q78 0 126 -53.5t48 -133.5q0 -96 -65.5 -154.5t-164.5 -58.5q-90 0 -150.5 51.5t-72.5 141.5z" />
<glyph unicode="&#xb9;" horiz-adv-x="591" d="M41 1556v218h412v-910h-252v692h-160z" />
<glyph unicode="&#xba;" horiz-adv-x="788" d="M76 1231q0 135 91 224t226 89t226.5 -89t91.5 -224t-91.5 -224t-226.5 -89t-226 89t-91 224zM279 1231q0 -49 32.5 -85t81.5 -36t82 36t33 85t-33 85t-82 36t-81.5 -36t-32.5 -85z" />
<glyph unicode="&#xbb;" horiz-adv-x="864" d="M96 211v287l105 92l-105 96v285l264 -269v-231zM504 211v287l106 92l-106 96v285l264 -269v-231z" />
<glyph unicode="&#xbc;" horiz-adv-x="1701" d="M41 1298v218h412v-910h-252v692h-160zM307 0l635 1516h281l-637 -1516h-279zM858 158v176l438 575h242v-559h107v-192h-107v-158h-252v158h-428zM1118 350h172v248h-4z" />
<glyph unicode="&#xbd;" horiz-adv-x="1775" d="M41 1298v218h412v-910h-252v692h-160zM297 0l635 1516h280l-637 -1516h-278zM969 569q4 137 59 217q100 141 307 142q131 0 234.5 -71t103.5 -198q0 -135 -123 -272q-70 -78 -186 -166v-4h313v-217h-698v199l37 24q39 25 49 31t47 30.5t52.5 37t47 37t50 43t40 42 t37.5 45.5q49 70 50 136q0 84 -72 84q-92 0 -96 -140h-252z" />
<glyph unicode="&#xbe;" horiz-adv-x="1941" d="M45 887h264q20 -78 103 -78q98 0 98 88q0 80 -137 80q-16 0 -42 -1t-34 -1v184h37q135 0 135 86q0 68 -66 68q-70 0 -73 -72h-258q2 141 99 217t241 76q121 0 216 -67.5t95 -184.5q0 -125 -117 -188q74 -25 122 -83.5t48 -133.5q0 -131 -114.5 -210t-251.5 -79 q-88 0 -175.5 31.5t-132.5 95.5q-47 66 -57 172zM557 0l635 1516h281l-637 -1516h-279zM1098 158v176l438 575h242v-559h106v-192h-106v-158h-252v158h-428zM1358 350h172v248h-4z" />
<glyph unicode="&#xbf;" horiz-adv-x="1212" d="M84 25q0 92 38 171.5t94 135t111.5 105.5t98.5 105.5t47 110.5h356q-2 -78 -37.5 -148.5t-88 -123.5t-103.5 -102.5t-87 -103.5t-36 -107q0 -127 117 -127q59 0 91 30.5t40 68.5t10 97h375q2 -12 2 -37q0 -225 -154.5 -367.5t-384.5 -142.5q-141 0 -258.5 62.5 t-181.5 183.5q-49 93 -49 189zM473 788v349h356v-349h-356z" />
<glyph unicode="&#xc0;" horiz-adv-x="1552" d="M18 0l609 1516h305l602 -1516h-420l-74 219h-526l-80 -219h-416zM436 1810l105 240l495 -262l-94 -199zM621 526h317l-156 518h-2h-4z" />
<glyph unicode="&#xc1;" horiz-adv-x="1552" d="M18 0l609 1516h305l602 -1516h-420l-74 219h-526l-80 -219h-416zM518 1790l492 264l108 -242l-504 -223zM621 526h317l-156 518h-2h-4z" />
<glyph unicode="&#xc2;" horiz-adv-x="1552" d="M18 0l609 1516h305l602 -1516h-420l-74 219h-526l-80 -219h-416zM352 1649l320 340h221l307 -340h-328l-94 118l-94 -118h-332zM621 526h317l-156 518h-2h-4z" />
<glyph unicode="&#xc3;" horiz-adv-x="1552" d="M18 0l609 1516h305l602 -1516h-420l-74 219h-526l-80 -219h-416zM362 1858q125 72 226 71q55 0 165.5 -25.5t166.5 -25.5q68 0 149 35l123 -174q-121 -76 -231 -76q-51 0 -165 26.5t-163 26.5q-51 0 -148 -39zM621 526h317l-156 518h-2h-4z" />
<glyph unicode="&#xc4;" horiz-adv-x="1552" d="M18 0l609 1516h305l602 -1516h-420l-74 219h-526l-80 -219h-416zM375 1669v309h325v-309h-325zM621 526h317l-156 518h-2h-4zM852 1669v309h326v-309h-326z" />
<glyph unicode="&#xc5;" horiz-adv-x="1552" d="M18 0l609 1516h305l602 -1516h-420l-74 219h-526l-80 -219h-416zM518 1824.5q0 106.5 76 182.5t182.5 76t182 -76t75.5 -182.5t-75.5 -182t-182 -75.5t-182.5 75.5t-76 182zM621 526h317l-156 518h-2h-4zM686 1825q0 -37 26.5 -62.5t63.5 -25.5t63.5 26.5t26.5 63.5 t-26.5 63.5t-63.5 26.5q-39 0 -64.5 -26.5t-25.5 -65.5z" />
<glyph unicode="&#xc6;" horiz-adv-x="1996" d="M-20 0l1052 1516h862v-340h-467v-236h453v-340h-453v-260h467v-340h-841v254h-441l-163 -254h-469zM770 553h283v412h-4z" />
<glyph unicode="&#xc7;" horiz-adv-x="1703" d="M76 760q0 332 231.5 558t562.5 226q213 0 391.5 -98t288.5 -279q70 -113 90 -227h-405q-45 119 -143.5 191.5t-223.5 72.5q-178 0 -291.5 -130t-113.5 -312t113.5 -316.5t293.5 -134.5q125 0 218.5 69t146.5 187h405q-63 -258 -263.5 -420.5t-467.5 -173.5l-45 -82 q20 6 43 7q76 0 125 -55.5t49 -131.5q0 -96 -65.5 -154.5t-163.5 -58.5q-90 0 -150.5 51.5t-72.5 141.5h155q14 -57 68 -58q35 0 54.5 21.5t19.5 56.5q0 31 -19.5 50.5t-50.5 19.5q-35 0 -55 -31l-133 72l77 160q-289 43 -479 264t-190 514z" />
<glyph unicode="&#xc8;" horiz-adv-x="1081" d="M137 0v1516h842v-340h-471v-236h457v-340h-457v-260h471v-340h-842zM201 1810l104 240l496 -262l-94 -199z" />
<glyph unicode="&#xc9;" horiz-adv-x="1081" d="M137 0v1516h842v-340h-471v-236h457v-340h-457v-260h471v-340h-842zM283 1790l491 264l109 -242l-504 -223z" />
<glyph unicode="&#xca;" horiz-adv-x="1081" d="M117 1649l319 340h221l308 -340h-328l-94 118l-94 -118h-332zM137 0v1516h842v-340h-471v-236h457v-340h-457v-260h471v-340h-842z" />
<glyph unicode="&#xcb;" horiz-adv-x="1081" d="M137 0v1516h842v-340h-471v-236h457v-340h-457v-260h471v-340h-842zM139 1669v309h326v-309h-326zM616 1669v309h326v-309h-326z" />
<glyph unicode="&#xcc;" horiz-adv-x="661" d="M-61 1810l104 240l496 -262l-95 -199zM137 0v1516h387v-1516h-387z" />
<glyph unicode="&#xcd;" horiz-adv-x="661" d="M123 1790l491 264l109 -242l-504 -223zM137 0v1516h387v-1516h-387z" />
<glyph unicode="&#xce;" horiz-adv-x="661" d="M-94 1649l319 340h221l308 -340h-328l-94 118l-94 -118h-332zM137 0v1516h387v-1516h-387z" />
<glyph unicode="&#xcf;" horiz-adv-x="661" d="M-72 1669v309h326v-309h-326zM137 0v1516h387v-1516h-387zM406 1669v309h325v-309h-325z" />
<glyph unicode="&#xd0;" horiz-adv-x="1581" d="M61 606v340h138v570h510q227 0 383.5 -58.5t277.5 -224.5q139 -193 139 -471q0 -346 -197.5 -554t-541.5 -208h-571v606h-138zM586 340h166q190 0 280 110.5t90 305.5q0 190 -91 305t-277 115h-168v-230h221v-340h-221v-266z" />
<glyph unicode="&#xd1;" horiz-adv-x="1554" d="M137 0v1516h334l586 -953l4 4l-17 949h371v-1516h-336l-577 922l-4 -2l10 -920h-371zM362 1858q125 72 226 71q55 0 165.5 -25.5t166.5 -25.5q68 0 149 35l123 -174q-121 -76 -231 -76q-51 0 -165 26.5t-163 26.5q-51 0 -148 -39z" />
<glyph unicode="&#xd2;" horiz-adv-x="1742" d="M72 739q0 172 59 324q31 82 98 170q238 311 641 311q334 0 567.5 -227t233.5 -559q0 -334 -233.5 -560.5t-569.5 -226.5q-326 0 -561 222t-235 546zM459 762q0 -186 116.5 -318.5t301.5 -132.5q178 0 292.5 132t114.5 313q0 182 -115.5 315t-296.5 133 q-182 0 -297.5 -130t-115.5 -312zM530 1810l105 240l495 -262l-94 -199z" />
<glyph unicode="&#xd3;" horiz-adv-x="1742" d="M72 739q0 172 59 324q31 82 98 170q238 311 641 311q334 0 567.5 -227t233.5 -559q0 -334 -233.5 -560.5t-569.5 -226.5q-326 0 -561 222t-235 546zM459 762q0 -186 116.5 -318.5t301.5 -132.5q178 0 292.5 132t114.5 313q0 182 -115.5 315t-296.5 133 q-182 0 -297.5 -130t-115.5 -312zM612 1790l492 264l108 -242l-503 -223z" />
<glyph unicode="&#xd4;" horiz-adv-x="1742" d="M72 739q0 172 59 324q31 82 98 170q238 311 641 311q334 0 567.5 -227t233.5 -559q0 -334 -233.5 -560.5t-569.5 -226.5q-326 0 -561 222t-235 546zM446 1649l320 340h221l307 -340h-327l-95 118l-94 -118h-332zM459 762q0 -186 116.5 -318.5t301.5 -132.5 q178 0 292.5 132t114.5 313q0 182 -115.5 315t-296.5 133q-182 0 -297.5 -130t-115.5 -312z" />
<glyph unicode="&#xd5;" horiz-adv-x="1742" d="M72 739q0 172 59 324q31 82 98 170q238 311 641 311q334 0 567.5 -227t233.5 -559q0 -334 -233.5 -560.5t-569.5 -226.5q-326 0 -561 222t-235 546zM457 1858q125 72 225 71q55 0 165.5 -25.5t166.5 -25.5q68 0 149 35l123 -174q-121 -76 -231 -76q-51 0 -165 26.5 t-163 26.5q-51 0 -147 -39zM459 762q0 -186 116.5 -318.5t301.5 -132.5q178 0 292.5 132t114.5 313q0 182 -115.5 315t-296.5 133q-182 0 -297.5 -130t-115.5 -312z" />
<glyph unicode="&#xd6;" horiz-adv-x="1742" d="M72 739q0 172 59 324q31 82 98 170q238 311 641 311q334 0 567.5 -227t233.5 -559q0 -334 -233.5 -560.5t-569.5 -226.5q-326 0 -561 222t-235 546zM459 762q0 -186 116.5 -318.5t301.5 -132.5q178 0 292.5 132t114.5 313q0 182 -115.5 315t-296.5 133 q-182 0 -297.5 -130t-115.5 -312zM469 1669v309h326v-309h-326zM946 1669v309h326v-309h-326z" />
<glyph unicode="&#xd7;" horiz-adv-x="1228" d="M115 231l266 267l-266 266l231 231l266 -266l269 268l233 -233l-268 -266l264 -267l-231 -231l-265 264l-268 -264z" />
<glyph unicode="&#xd8;" horiz-adv-x="1742" d="M72 758q0 336 231.5 561t568.5 225q186 0 342 -71l132 178l241 -176l-131 -177q215 -231 215 -540q0 -334 -234.5 -560.5t-568.5 -226.5q-178 0 -342 72l-129 -172l-241 178l127 170q-211 226 -211 539zM459 764q0 -133 55 -234l485 654q-59 20 -127 20 q-180 0 -296.5 -129t-116.5 -311zM739 334q61 -23 135 -23q178 0 294 132t116 313q0 121 -59 233z" />
<glyph unicode="&#xd9;" horiz-adv-x="1429" d="M133 600v916h387v-916q0 -129 40 -209t157 -80q53 0 90 17.5t56.5 42t30.5 66.5t13 77t2 86v916h387v-916q0 -156 -30.5 -265.5t-120.5 -199.5q-162 -164 -424 -164q-283 0 -436 162q-96 100 -124 201.5t-28 265.5zM303 1810l105 240l495 -262l-94 -199z" />
<glyph unicode="&#xda;" horiz-adv-x="1429" d="M133 600v916h387v-916q0 -129 40 -209t157 -80q53 0 90 17.5t56.5 42t30.5 66.5t13 77t2 86v916h387v-916q0 -156 -30.5 -265.5t-120.5 -199.5q-162 -164 -424 -164q-283 0 -436 162q-96 100 -124 201.5t-28 265.5zM528 1790l492 264l108 -242l-503 -223z" />
<glyph unicode="&#xdb;" horiz-adv-x="1429" d="M133 600v916h387v-916q0 -129 40 -209t157 -80q53 0 90 17.5t56.5 42t30.5 66.5t13 77t2 86v916h387v-916q0 -156 -30.5 -265.5t-120.5 -199.5q-162 -164 -424 -164q-283 0 -436 162q-96 100 -124 201.5t-28 265.5zM291 1649l319 340h221l308 -340h-328l-94 118l-94 -118 h-332z" />
<glyph unicode="&#xdc;" horiz-adv-x="1429" d="M133 600v916h387v-916q0 -129 40 -209t157 -80q53 0 90 17.5t56.5 42t30.5 66.5t13 77t2 86v916h387v-916q0 -156 -30.5 -265.5t-120.5 -199.5q-162 -164 -424 -164q-283 0 -436 162q-96 100 -124 201.5t-28 265.5zM313 1669v309h326v-309h-326zM791 1669v309h325v-309 h-325z" />
<glyph unicode="&#xdd;" horiz-adv-x="1325" d="M18 1516h420l226 -609l227 609h416l-449 -965v-551h-387v551zM475 1790l492 264l108 -242l-504 -223z" />
<glyph unicode="&#xde;" horiz-adv-x="1302" d="M137 0v1516h371v-199q27 0 81 1t81 1q299 0 430 -111q178 -152 178 -401q0 -111 -42 -221.5t-118 -175.5q-92 -80 -194.5 -105.5t-247.5 -25.5h-168v-279h-371zM508 618h158q113 0 177 39t64 144q0 106 -69.5 142t-186.5 36h-143v-361z" />
<glyph unicode="&#xdf;" horiz-adv-x="1421" d="M119 0v874q0 113 5 178.5t35.5 151.5t90.5 152q84 94 202.5 146t245.5 52q190 0 336 -120.5t146 -307.5q0 -168 -146 -264q137 -35 227.5 -145.5t90.5 -249.5q0 -213 -157 -358.5t-372 -145.5q-117 0 -197.5 40t-166.5 128v-131h-340zM459 428h190q39 -147 176 -147 q78 0 132.5 53t54.5 131q0 94 -64.5 142t-165.5 48h-184v256h70q74 0 123 42t49 114q0 78 -51.5 124t-129.5 46q-104 0 -152 -73.5t-48 -184.5v-551z" />
<glyph unicode="&#xe0;" horiz-adv-x="1441" d="M70 569q0 254 159.5 430.5t411.5 176.5q102 0 193.5 -40t138.5 -120h4v121h340v-1137h-340v123h-4q-43 -82 -136.5 -122t-195.5 -40q-256 0 -413.5 174t-157.5 434zM381 1479l104 239l496 -262l-94 -199zM410 565q0 -119 81.5 -202.5t200.5 -83.5q123 0 204 83.5 t81 206.5q0 125 -81 207t-206 82q-123 0 -201.5 -85t-78.5 -208z" />
<glyph unicode="&#xe1;" horiz-adv-x="1441" d="M70 569q0 254 159.5 430.5t411.5 176.5q102 0 193.5 -40t138.5 -120h4v121h340v-1137h-340v123h-4q-43 -82 -136.5 -122t-195.5 -40q-256 0 -413.5 174t-157.5 434zM410 565q0 -119 81.5 -202.5t200.5 -83.5q123 0 204 83.5t81 206.5q0 125 -81 207t-206 82 q-123 0 -201.5 -85t-78.5 -208zM463 1473l491 264l109 -242l-504 -223z" />
<glyph unicode="&#xe2;" horiz-adv-x="1441" d="M70 569q0 254 159.5 430.5t411.5 176.5q102 0 193.5 -40t138.5 -120h4v121h340v-1137h-340v123h-4q-43 -82 -136.5 -122t-195.5 -40q-256 0 -413.5 174t-157.5 434zM297 1311l319 340h222l307 -340h-328l-94 119l-94 -119h-332zM410 565q0 -119 81.5 -202.5t200.5 -83.5 q123 0 204 83.5t81 206.5q0 125 -81 207t-206 82q-123 0 -201.5 -85t-78.5 -208z" />
<glyph unicode="&#xe3;" horiz-adv-x="1441" d="M70 569q0 254 159.5 430.5t411.5 176.5q102 0 193.5 -40t138.5 -120h4v121h340v-1137h-340v123h-4q-43 -82 -136.5 -122t-195.5 -40q-256 0 -413.5 174t-157.5 434zM307 1528q125 72 225 71q57 0 166 -25.5t166 -25.5q68 0 150 35l123 -174q-121 -76 -232 -76 q-51 0 -164.5 26.5t-163 26.5t-147.5 -38zM410 565q0 -119 81.5 -202.5t200.5 -83.5q123 0 204 83.5t81 206.5q0 125 -81 207t-206 82q-123 0 -201.5 -85t-78.5 -208z" />
<glyph unicode="&#xe4;" horiz-adv-x="1441" d="M70 569q0 254 159.5 430.5t411.5 176.5q102 0 193.5 -40t138.5 -120h4v121h340v-1137h-340v123h-4q-43 -82 -136.5 -122t-195.5 -40q-256 0 -413.5 174t-157.5 434zM319 1319v309h326v-309h-326zM410 565q0 -119 81.5 -202.5t200.5 -83.5q123 0 204 83.5t81 206.5 q0 125 -81 207t-206 82q-123 0 -201.5 -85t-78.5 -208zM797 1319v309h325v-309h-325z" />
<glyph unicode="&#xe5;" horiz-adv-x="1441" d="M70 569q0 254 159.5 430.5t411.5 176.5q102 0 193.5 -40t138.5 -120h4v121h340v-1137h-340v123h-4q-43 -82 -136.5 -122t-195.5 -40q-256 0 -413.5 174t-157.5 434zM410 565q0 -119 81.5 -202.5t200.5 -83.5q123 0 204 83.5t81 206.5q0 125 -81 207t-206 82 q-123 0 -201.5 -85t-78.5 -208zM463 1486.5q0 106.5 75.5 182.5t182 76t182.5 -76t76 -182.5t-76 -182t-182.5 -75.5t-182 75.5t-75.5 182zM631 1487q0 -37 26.5 -62.5t63.5 -25.5t63.5 26.5t26.5 63.5t-26.5 63.5t-63.5 26.5q-39 0 -64.5 -26.5t-25.5 -65.5z" />
<glyph unicode="&#xe6;" horiz-adv-x="2234" d="M70 567q0 258 164.5 433.5t420.5 175.5q90 0 185.5 -39t130.5 -111h4v111h309v-109h4q109 147 320 148q117 0 233 -56q160 -80 244 -233.5t84 -339.5q0 -57 -8 -84h-854q14 -100 85.5 -156.5t174.5 -56.5q125 0 221 108h342q-172 -395 -524 -395q-219 0 -318 150h-4v-113 h-309v113h-4q-39 -74 -134.5 -112t-189.5 -38q-240 0 -408.5 181t-168.5 423zM410 575q0 -127 80.5 -210.5t207.5 -83.5q119 0 198 82.5t79 201.5q0 129 -80 211t-209 82q-178 0 -250 -170q-26 -58 -26 -113zM1315 688h518q-55 199 -254 199q-96 0 -173 -53.5t-91 -145.5z " />
<glyph unicode="&#xe7;" horiz-adv-x="1335" d="M68 571q0 252 174 428.5t426 176.5q221 0 389 -131.5t213 -346.5h-344q-80 152 -254 152q-117 0 -189.5 -81t-72.5 -200q0 -123 74.5 -205.5t195.5 -82.5q166 0 246 151h346q-47 -199 -200.5 -327t-356.5 -138l-41 -76q23 6 43 7q76 0 125 -55.5t49 -131.5 q0 -96 -65.5 -154.5t-163.5 -58.5q-90 0 -150.5 51.5t-73.5 141.5h156q16 -57 68 -58q35 0 54 21.5t19 56.5q0 31 -19.5 50.5t-49.5 19.5q-35 0 -56 -31l-133 72l74 153q-213 43 -348 210t-135 386z" />
<glyph unicode="&#xe8;" horiz-adv-x="1323" d="M61 565q0 250 174.5 430.5t421.5 180.5q258 0 429 -180.5t171 -440.5q0 -49 -8 -90h-852q14 -98 89 -156.5t178 -58.5q123 0 206 106h349q-76 -176 -222.5 -284.5t-332.5 -108.5q-250 0 -426.5 176t-176.5 426zM322 1479l104 239l496 -262l-95 -199zM401 694h517 q-20 90 -92 142.5t-166.5 52.5t-166.5 -52.5t-92 -142.5z" />
<glyph unicode="&#xe9;" horiz-adv-x="1323" d="M61 565q0 250 174.5 430.5t421.5 180.5q258 0 429 -180.5t171 -440.5q0 -49 -8 -90h-852q14 -98 89 -156.5t178 -58.5q123 0 206 106h349q-76 -176 -222.5 -284.5t-332.5 -108.5q-250 0 -426.5 176t-176.5 426zM401 694h517q-20 90 -92 142.5t-166.5 52.5t-166.5 -52.5 t-92 -142.5zM403 1473l492 264l109 -242l-504 -223z" />
<glyph unicode="&#xea;" horiz-adv-x="1323" d="M61 565q0 250 174.5 430.5t421.5 180.5q258 0 429 -180.5t171 -440.5q0 -49 -8 -90h-852q14 -98 89 -156.5t178 -58.5q123 0 206 106h349q-76 -176 -222.5 -284.5t-332.5 -108.5q-250 0 -426.5 176t-176.5 426zM238 1311l319 340h221l307 -340h-327l-94 119l-95 -119 h-331zM401 694h517q-20 90 -92 142.5t-166.5 52.5t-166.5 -52.5t-92 -142.5z" />
<glyph unicode="&#xeb;" horiz-adv-x="1323" d="M61 565q0 250 174.5 430.5t421.5 180.5q258 0 429 -180.5t171 -440.5q0 -49 -8 -90h-852q14 -98 89 -156.5t178 -58.5q123 0 206 106h349q-76 -176 -222.5 -284.5t-332.5 -108.5q-250 0 -426.5 176t-176.5 426zM260 1319v309h326v-309h-326zM401 694h517 q-20 90 -92 142.5t-166.5 52.5t-166.5 -52.5t-92 -142.5zM737 1319v309h326v-309h-326z" />
<glyph unicode="&#xec;" horiz-adv-x="585" d="M-98 1479l104 239l496 -262l-94 -199zM123 0v1137h340v-1137h-340z" />
<glyph unicode="&#xed;" horiz-adv-x="585" d="M86 1473l492 264l108 -242l-504 -223zM123 0v1137h340v-1137h-340z" />
<glyph unicode="&#xee;" horiz-adv-x="585" d="M-131 1311l319 340h222l307 -340h-328l-94 119l-94 -119h-332zM123 0v1137h340v-1137h-340z" />
<glyph unicode="&#xef;" horiz-adv-x="585" d="M-109 1319v309h326v-309h-326zM123 0v1137h340v-1137h-340zM369 1319v309h325v-309h-325z" />
<glyph unicode="&#xf0;" horiz-adv-x="1363" d="M70 565q0 240 149.5 412t386.5 172q154 0 248 -96l4 4q-53 96 -199 190l-307 -92l-190 123l287 88q-111 53 -203 74l327 108q109 -29 207 -80l264 80l170 -131l-247 -76q328 -268 327 -723q0 -274 -170 -463.5t-442 -189.5q-256 0 -434 172t-178 428zM410 571 q0 -123 76.5 -205.5t199.5 -82.5q121 0 194.5 84t73.5 204q0 119 -72.5 204t-189.5 85q-121 0 -201.5 -84t-80.5 -205z" />
<glyph unicode="&#xf1;" horiz-adv-x="1294" d="M123 0v1137h317v-121h4q98 160 310 160q74 0 155.5 -27t134.5 -72q131 -109 132 -366v-711h-340v621q0 113 -37 174t-142 61q-111 0 -152.5 -62.5t-41.5 -175.5v-618h-340zM233 1528q125 72 226 71q57 0 165.5 -25.5t166.5 -25.5q68 0 149 35l123 -174q-121 -76 -232 -76 q-51 0 -164.5 26.5t-162.5 26.5t-148 -38z" />
<glyph unicode="&#xf2;" horiz-adv-x="1363" d="M70 569q0 260 175 432.5t437 172.5t437 -172.5t175 -432.5t-175 -432t-437 -172t-437 172t-175 432zM342 1479l104 239l496 -262l-94 -199zM410 569.5q0 -116.5 77.5 -201.5t194.5 -85t194.5 85t77.5 201.5t-77.5 201.5t-194.5 85t-194.5 -85t-77.5 -201.5z" />
<glyph unicode="&#xf3;" horiz-adv-x="1363" d="M70 569q0 260 175 432.5t437 172.5t437 -172.5t175 -432.5t-175 -432t-437 -172t-437 172t-175 432zM410 569.5q0 -116.5 77.5 -201.5t194.5 -85t194.5 85t77.5 201.5t-77.5 201.5t-194.5 85t-194.5 -85t-77.5 -201.5zM424 1473l491 264l109 -242l-504 -223z" />
<glyph unicode="&#xf4;" horiz-adv-x="1363" d="M70 569q0 260 175 432.5t437 172.5t437 -172.5t175 -432.5t-175 -432t-437 -172t-437 172t-175 432zM258 1311l320 340h221l307 -340h-328l-94 119l-94 -119h-332zM410 569.5q0 -116.5 77.5 -201.5t194.5 -85t194.5 85t77.5 201.5t-77.5 201.5t-194.5 85t-194.5 -85 t-77.5 -201.5z" />
<glyph unicode="&#xf5;" horiz-adv-x="1363" d="M70 569q0 260 175 432.5t437 172.5t437 -172.5t175 -432.5t-175 -432t-437 -172t-437 172t-175 432zM268 1528q125 72 226 71q55 0 165.5 -25.5t165.5 -25.5q68 0 150 35l123 -174q-121 -76 -232 -76q-51 0 -164.5 26.5t-162.5 26.5q-51 0 -148 -38zM410 569.5 q0 -116.5 77.5 -201.5t194.5 -85t194.5 85t77.5 201.5t-77.5 201.5t-194.5 85t-194.5 -85t-77.5 -201.5z" />
<glyph unicode="&#xf6;" horiz-adv-x="1363" d="M70 569q0 260 175 432.5t437 172.5t437 -172.5t175 -432.5t-175 -432t-437 -172t-437 172t-175 432zM281 1319v309h325v-309h-325zM410 569.5q0 -116.5 77.5 -201.5t194.5 -85t194.5 85t77.5 201.5t-77.5 201.5t-194.5 85t-194.5 -85t-77.5 -201.5zM758 1319v309h325 v-309h-325z" />
<glyph unicode="&#xf7;" horiz-adv-x="1228" d="M98 354v328h1032v-328h-1032zM453 -117v328h321v-328h-321zM453 825v328h321v-328h-321z" />
<glyph unicode="&#xf8;" horiz-adv-x="1363" d="M70 565q0 264 175 436.5t439 172.5q139 0 248 -48l125 170l219 -157l-127 -170q145 -174 145 -400q0 -260 -174 -433t-436 -173q-135 0 -248 47l-133 -180l-215 164l125 168q-143 161 -143 403zM410 569q0 -72 26 -127l303 408q-27 6 -55 6q-119 0 -196.5 -84t-77.5 -203 zM631 287q25 -6 51 -6q119 0 195.5 84t76.5 204q0 57 -24 119z" />
<glyph unicode="&#xf9;" horiz-adv-x="1298" d="M119 457v680h340v-629q0 -111 38 -169t144 -58q195 0 195 231v625h340v-1137h-322v121h-4q-76 -158 -295 -158q-217 0 -334 143q-63 80 -82.5 156t-19.5 195zM238 1479l104 239l496 -262l-95 -199z" />
<glyph unicode="&#xfa;" horiz-adv-x="1298" d="M119 457v680h340v-629q0 -111 38 -169t144 -58q195 0 195 231v625h340v-1137h-322v121h-4q-76 -158 -295 -158q-217 0 -334 143q-63 80 -82.5 156t-19.5 195zM463 1473l491 264l109 -242l-504 -223z" />
<glyph unicode="&#xfb;" horiz-adv-x="1298" d="M119 457v680h340v-629q0 -111 38 -169t144 -58q195 0 195 231v625h340v-1137h-322v121h-4q-76 -158 -295 -158q-217 0 -334 143q-63 80 -82.5 156t-19.5 195zM225 1311l320 340h221l307 -340h-328l-94 119l-94 -119h-332z" />
<glyph unicode="&#xfc;" horiz-adv-x="1298" d="M119 457v680h340v-629q0 -111 38 -169t144 -58q195 0 195 231v625h340v-1137h-322v121h-4q-76 -158 -295 -158q-217 0 -334 143q-63 80 -82.5 156t-19.5 195zM248 1319v309h325v-309h-325zM725 1319v309h326v-309h-326z" />
<glyph unicode="&#xfd;" horiz-adv-x="1175" d="M2 1137h363l227 -660h4l217 660h361l-570 -1516h-360l180 436zM401 1473l492 264l108 -242l-503 -223z" />
<glyph unicode="&#xfe;" horiz-adv-x="1423" d="M121 -379v1895h340v-480q137 137 338 138q256 0 407.5 -178.5t151.5 -438.5q0 -246 -155.5 -421t-399.5 -175q-213 0 -342 141v-481h-340zM444 567q0 -121 83 -204.5t204 -83.5t204 83.5t83 204.5q0 123 -82 206t-205 83t-205 -83t-82 -206z" />
<glyph unicode="&#xff;" horiz-adv-x="1175" d="M2 1137h363l227 -660h4l217 660h361l-570 -1516h-360l180 436zM186 1319v309h326v-309h-326zM664 1319v309h325v-309h-325z" />
<glyph unicode="&#x152;" horiz-adv-x="2222" d="M72 754q0 338 229 564t567 226q233 0 408 -129v101h844v-340h-471v-236h454v-340h-454v-260h471v-340h-844v100q-182 -129 -418 -129q-328 0 -557 227.5t-229 555.5zM459 754q0 -180 113.5 -311.5t291.5 -131.5q186 0 298 132t112 321q0 184 -112.5 312t-295.5 128 q-184 0 -295.5 -132t-111.5 -318z" />
<glyph unicode="&#x153;" horiz-adv-x="2203" d="M70 565q0 264 176 437.5t442 173.5q119 0 240 -52.5t186 -142.5q66 90 186.5 142.5t239.5 52.5q256 0 428 -181.5t172 -437.5q0 -43 -10 -94h-852q10 -98 82 -155.5t172 -57.5q129 0 221 104h348q-76 -180 -224 -286.5t-337 -106.5q-279 0 -426 205q-162 -205 -442 -205 q-252 0 -427 176t-175 428zM410 567q0 -117 79.5 -202.5t196.5 -85.5q115 0 192.5 87t77.5 203.5t-78.5 202.5t-193.5 86q-119 0 -196.5 -86t-77.5 -205zM1288 690h512q-20 90 -91 143.5t-165 53.5t-167 -53.5t-89 -143.5z" />
<glyph unicode="&#x178;" horiz-adv-x="1325" d="M18 1516h420l226 -609l227 609h416l-449 -965v-551h-387v551zM260 1669v309h326v-309h-326zM737 1669v309h326v-309h-326z" />
<glyph unicode="&#x2c6;" horiz-adv-x="1136" d="M143 1290l320 340h221l307 -340h-327l-95 119l-94 -119h-332z" />
<glyph unicode="&#x2dc;" horiz-adv-x="1136" d="M154 1507q125 72 225 72q55 0 165.5 -25.5t166.5 -25.5q68 0 149 35l123 -174q-121 -76 -231 -76q-51 0 -165 26.5t-163 26.5q-51 0 -148 -39z" />
<glyph unicode="&#x2000;" horiz-adv-x="1040" />
<glyph unicode="&#x2001;" horiz-adv-x="2082" />
<glyph unicode="&#x2002;" horiz-adv-x="1040" />
<glyph unicode="&#x2003;" horiz-adv-x="2082" />
<glyph unicode="&#x2004;" horiz-adv-x="694" />
<glyph unicode="&#x2005;" horiz-adv-x="520" />
<glyph unicode="&#x2006;" horiz-adv-x="346" />
<glyph unicode="&#x2007;" horiz-adv-x="346" />
<glyph unicode="&#x2008;" horiz-adv-x="260" />
<glyph unicode="&#x2009;" horiz-adv-x="415" />
<glyph unicode="&#x200a;" horiz-adv-x="114" />
<glyph unicode="&#x2010;" horiz-adv-x="575" d="M0 424v334h575v-334h-575z" />
<glyph unicode="&#x2011;" horiz-adv-x="575" d="M0 424v334h575v-334h-575z" />
<glyph unicode="&#x2012;" horiz-adv-x="575" d="M0 424v334h575v-334h-575z" />
<glyph unicode="&#x2013;" horiz-adv-x="1024" d="M72 424v334h880v-334h-880z" />
<glyph unicode="&#x2014;" horiz-adv-x="2048" d="M72 424v334h1904v-334h-1904z" />
<glyph unicode="&#x2018;" horiz-adv-x="643" d="M143 838v430q0 102 55.5 175t153.5 73h148v-183h-28h-32q-8 0 -28.5 -2t-28.5 -7t-20.5 -13t-17.5 -22.5t-5 -33.5v-69h160v-348h-357z" />
<glyph unicode="&#x2019;" horiz-adv-x="643" d="M143 838v182h28h32q8 0 28.5 2t29.5 7t21.5 13.5t17.5 22.5t5 33v69h-162v349h357v-431q0 -104 -54.5 -175.5t-154.5 -71.5h-148z" />
<glyph unicode="&#x201a;" horiz-adv-x="643" d="M143 0v348h357v-430q0 -102 -55.5 -175t-153.5 -73h-148v183h28h32q8 0 28.5 2t29.5 7t21.5 13t17.5 22.5t5 32.5v70h-162z" />
<glyph unicode="&#x201c;" horiz-adv-x="1136" d="M137 838v430q0 102 55.5 175t153.5 73h148v-185h-27h-32q-9 0 -29.5 -2t-29.5 -7t-21.5 -13.5t-17.5 -21.5t-5 -32v-69h162v-348h-357zM643 838v430q0 102 55.5 175t153.5 73h147v-185h-26h-32q-9 0 -29.5 -2t-30 -7t-21.5 -13.5t-17 -21.5t-5 -32v-69h161v-348h-356z " />
<glyph unicode="&#x201d;" horiz-adv-x="1136" d="M137 838v182h28h32q8 0 28.5 2t29.5 7t21.5 13.5t17.5 22.5t5 33v69h-162v349h357v-431q0 -104 -54.5 -175.5t-154.5 -71.5h-148zM643 838v182h28h31q8 0 29 2t29 7t20.5 13.5t17.5 22.5t5 33v69h-160v349h356v-431q0 -104 -54 -175.5t-154 -71.5h-148z" />
<glyph unicode="&#x201e;" horiz-adv-x="1136" d="M137 0v348h357v-430q0 -104 -55.5 -176t-155.5 -72h-146v183h28h32q8 0 28.5 2t28.5 7t20.5 13t17.5 22.5t5 32.5v70h-160zM643 0v348h356v-430q0 -102 -55 -175t-153 -73h-148v183h28h31q8 0 29 2t29 7t20.5 13t17.5 22.5t5 32.5v70h-160z" />
<glyph unicode="&#x2022;" horiz-adv-x="1513" d="M444 772q0 131 92.5 224.5t223.5 93.5q129 0 219 -94.5t90 -223.5t-91 -223t-220 -94t-221.5 94t-92.5 223z" />
<glyph unicode="&#x2026;" horiz-adv-x="2048" d="M166 0v348h354v-348h-354zM848 0v348h354v-348h-354zM1530 0v348h354v-348h-354z" />
<glyph unicode="&#x202f;" horiz-adv-x="415" />
<glyph unicode="&#x2039;" horiz-adv-x="454" d="M96 471v234l262 266v-287l-104 -92l104 -96v-285z" />
<glyph unicode="&#x203a;" horiz-adv-x="454" d="M96 211v287l105 92l-105 96v285l262 -269v-231z" />
<glyph unicode="&#x205f;" horiz-adv-x="520" />
<glyph unicode="&#x20ac;" d="M20 518l37 197h138v43v47h-175l37 196h158q43 242 172 392.5t356 150.5q201 0 326 -126t152 -328h-336q-16 49 -54 81.5t-88 32.5q-133 0 -168 -203h422l-36 -196h-404v-47v-43h387l-37 -197h-332q41 -207 173 -207q104 0 139 123h336q-31 -221 -153 -342t-335 -121 q-162 0 -275.5 76t-170 192.5t-78.5 278.5h-191z" />
<glyph unicode="&#x2122;" horiz-adv-x="1933" d="M43 1298v218h629v-218h-185v-692h-258v692h-186zM791 606v910h325l178 -568h4l177 568h325v-910h-239l4 617h-4l-179 -617h-172l-184 617l-4 -4l8 -613h-239z" />
<glyph unicode="&#xe000;" horiz-adv-x="1135" d="M0 1135h1135v-1135h-1135v1135z" />
<glyph unicode="&#xfb01;" horiz-adv-x="1230" d="M8 879v258h127v59q0 348 434 348h52v-256q-92 0 -119 -27.5t-27 -123.5h633v-1137h-340v879h-293v-879h-340v879h-127zM768 1257v259h340v-259h-340z" />
<glyph unicode="&#xfb02;" horiz-adv-x="1230" d="M8 879v258h127v59q0 348 434 348h52v-256q-92 0 -119 -27.5t-27 -123.5h293v379h340v-1516h-340v879h-293v-879h-340v879h-127z" />
<glyph unicode="&#xfb03;" horiz-adv-x="1863" d="M8 879v258h127v30q0 348 434 349h49v-256h-38q-20 0 -41 -5.5t-42.5 -32t-21.5 -69.5v-16h293v30q0 348 434 349h51v-256h-39q-23 0 -43 -5.5t-41.5 -32t-21.5 -69.5v-16h633v-1137h-340v879h-293v-879h-340v879h-293v-879h-340v879h-127zM1401 1260v256h340v-256h-340z " />
<glyph unicode="&#xfb04;" horiz-adv-x="1863" d="M8 879v258h127v30q0 348 434 349h49v-256h-38q-20 0 -41 -5.5t-42.5 -32t-21.5 -69.5v-16h293v30q0 348 434 349h51v-256h-39q-23 0 -43 -5.5t-41.5 -32t-21.5 -69.5v-16h293v379h340v-1516h-340v879h-293v-879h-340v879h-293v-879h-340v879h-127z" />
</font>
</defs>
</svg>
